Taký malý CPU benchmark pre našu komunitu, zapoj sa!

Diskuse na témata, která se netýkají výše uvedených témat

Moderátor: Moderátoři Živě.cz

Odeslat příspěvekod dropadred 28. 8. 2019 15:38

Obrázek

Každého zaujíma niečo iné, niekoho Blender, iného Cinebench, iného bottleneck v Minecrafte. Mňa zaujíma FFMPEG - mocný CLI-based nástroj pre manipuláciu s mediálnymi formátmi (mnohé, často platené SW sú len GUI blúzka cez ffmpeg), a Odkedy dorazil 12/24 Rezeň (a na ceste je 16/32 príadvok), tak mi to nedá spať a nemyslieť na to, či nemám z nich mokré sny len nadarmo, kedže síce nie som žiaden kontentkriéjtr, no pracujem s konverziou videí, takže som si pripravil taký vlastný benchmark a rád by som Vás poprosil o pomoc.

O čo ide?

Síce na joutub vidíme všetky tie krásne benchmarky typu Blender, PP a tak ale niektorí ako ja potrebujú konvertovať videá, konvertovať kodeky, pridávať filtre, redukovať bitrate...to všetko zadarmo s pomocou veľmi mocného FFMPEGu, a z dávnejšieho vlastného testovania NVENC, QSV a SW HEVC (de/en/trans)kódovania som si všimol, že niekedy viac zavážila frekvencia ako počet jadier, takže...

Hľadané procesory - VŠETKY!
Super-duper link s tabuľkou s výsledkami - TU!


Chceš sa zapojiť? Ak by ste boli ochotní obetovať (asi, možno aj o dosť menej podľa CPU) 30 minút života, tak mrk tu
https://drive.google.com/uc?id=1vtk9zWSsPGYcOYumZW6GXVTLaLItY32U&export=download
je to archív s troma videami, ffmpeg binárkou a návodom - je to totálne jednoduché, doslova len pustíte tri príkazy a zapíšete dve hodnoty po skončení každej (všetko je v návode), no ak by som vás mohol poprosiť, nerobte počas toho na PC nič iné, nech to neovplyvní výsledky. Vyťažovať to bude v podstate len CPU. Ak by ste mi k tomu povedali aj to, či máte OC na CPU alebo nie a to isté pre RAM (frekvencia a časovanie), tak by to bola paráda.

Ak to niekoho zaujíma, tak v podstate sú tri testy:
1. 1080p video - konverzia H264>H265 + aplikovanie efektu ostrenia a pridania šumu, kompresia
2. 4k video - konverzia H264>H265, kompresia
3. 4k HDR video - konverzia HDR>SDR, kompresia
prvé dve by mohli reálne zabrať cca rovnako času, tretie by malo trvať najdlhšie, HDR>SDR konverzia je spleť mnohých filtrov (mapovanie farieb, konverzia farebného priestoru, gamma štandardu,...).

Na inom fóre sme už začali a už nazbierali niekoľko testov (ak tam uvidíte vaše CPU, aj tak testujte, nie je nič lepšie ako vidieť aj najmenšie variácie pri rovnakých produktoch, ktoré trošku rozvíria diskusiu a konšpiračné teórie, čo za tým stojí).
Tak...budem sa tešiť, ak sa niekto z vás objaví dole s výsledkami, naozaj som veľmi zvedavý, či zvíťazí počet vlákien, frekvencia alebo zdravá kombinácia oboch. Rád by som sa taktiež už konečne dohodol sám so sebou, čo je pre mňa ideálny procáček.

Každému zúčastnenému vopred Ďakujem! :nod:
Audio-GD R2R-11 > Mr.Speakers Alpha Dog, Audeze LCD-2 Classic; Dragonfly Red > Oriveti Basic
dropadred
Kolemjdoucí
Uživatelský avatar

Odeslat příspěvekod dropadred 4. 9. 2019 09:56

No, páni, ale tak čo to má znamenať? Už máme 35 výsledkov z iných fór, hádam tu má niekto Windows mašinu, akékoľvek PC a ego, ktoré si chce dobre speniť...
https://docs.google.com/spreadsheets/d/ ... RJIVRSomY/

Ja by som tam už rád pridal nejaké výsledky od našich CZ susedov...
Audio-GD R2R-11 > Mr.Speakers Alpha Dog, Audeze LCD-2 Classic; Dragonfly Red > Oriveti Basic
dropadred
Kolemjdoucí
Uživatelský avatar

Odeslat příspěvekod milsimr 4. 9. 2019 21:10

Výsledky z mojí současné i5-3570K nikoho pravděpodobně zajímat nebudou, popř. už to někdo někde zkoušel a lze to tím pádem i dohledat. Pak se mi tu válí ještě dva notebooky, z toho jeden je pracovní a otevřít na něm cokoliv co není ve firmou schváleném seznamu je imho problém no a ještě tu mám po ruce starší PowerEdge 1850 v dvou procesorové konfiguraci s 16 GB ECC RAM.

Takže nic světoborného.

Upgrade na Zen2 Threadripper možná po novém roce, tak stay tuned ...
Administrátor fóra Živě.cz.
milsimr
Administrátor
Uživatelský avatar

Odeslat příspěvekod dropadred 6. 9. 2019 09:34

Ale čo by nie, ak by si mal čas, hoď aj 3570k výsledky, budem veľmi rád.
Audio-GD R2R-11 > Mr.Speakers Alpha Dog, Audeze LCD-2 Classic; Dragonfly Red > Oriveti Basic
dropadred
Kolemjdoucí
Uživatelský avatar

Odeslat příspěvekod milsimr 7. 9. 2019 21:00

i5-3570K@4.4 GHz / 8 GB RAM

1.
fps=6.21
speed=0.207x

2.
fps=2.35
speed=0.078x

3.
fps=3.44
speed=0.0574x

Log:
Kód: Vybrat vše
PS C:\Users\Core i5\Downloads\CPUBench_FFMPEGkonverzie> .\ffmpeg.exe -i "1_fhdh264toh265filters.mkv" -vf unsharp=3:3:1.5,noise=c0s=8:c0f=t -c:v libx265 -crf:v 24 "1_fhdh264toh265filters_HOTOVO.mkv"
ffmpeg version N-94646-g1cfba7fc75 Copyright (c) 2000-2019 the FFmpeg developers
  built with gcc 9.1.1 (GCC) 20190807
  configuration: --enable-gpl --enable-version3 --enable-sdl2 --enable-fontconfig --enable-gnutls --enable-iconv --enable-libass --enable-libdav1d --enable-libbluray --enable-libfreetype --enable-libmp3lame --enable-libopencore-amrnb --enable-libopencore-amrwb --enable-libopenjpeg --enable-libopus --enable-libshine --enable-libsnappy --enable-libsoxr --enable-libtheora --enable-libtwolame --enable-libvpx --enable-libwavpack --enable-libwebp --enable-libx264 --enable-libx265 --enable-libxml2 --enable-libzimg --enable-lzma --enable-zlib --enable-gmp --enable-libvidstab --enable-libvorbis --enable-libvo-amrwbenc --enable-libmysofa --enable-libspeex --enable-libxvid --enable-libaom --enable-libmfx --enable-amf --enable-ffnvcodec --enable-cuvid --enable-d3d11va --enable-nvenc --enable-nvdec --enable-dxva2 --enable-avisynth --enable-libopenmpt
  libavutil      56. 33.100 / 56. 33.100
  libavcodec     58. 55.101 / 58. 55.101
  libavformat    58. 31.102 / 58. 31.102
  libavdevice    58.  9.100 / 58.  9.100
  libavfilter     7. 58.101 /  7. 58.101
  libswscale      5.  6.100 /  5.  6.100
  libswresample   3.  6.100 /  3.  6.100
  libpostproc    55.  6.100 / 55.  6.100
Input #0, matroska,webm, from '1_fhdh264toh265filters.mkv':
  Metadata:
    encoder         : libebml v1.2.0 + libmatroska v1.1.0
    creation_time   : 2016-02-06T04:00:52.000000Z
  Duration: 00:00:30.03, start: 0.000000, bitrate: 19914 kb/s
    Stream #0:0(eng): Video: h264 (High), yuv420p(tv, bt709, progressive), 1920x1080 [SAR 1:1 DAR 16:9], 29.97 fps, 29.97 tbr, 1k tbn, 59.94 tbc (default)
Stream mapping:
  Stream #0:0 -> #0:0 (h264 (native) -> hevc (libx265))
Press [q] to stop, [?] for help
x265 [info]: HEVC encoder version 3.1+11-de920e0a3183
x265 [info]: build info [Windows][GCC 9.1.1][64 bit] 8bit+10bit
x265 [info]: using cpu capabilities: MMX2 SSE2Fast SSSE3 SSE4.2 AVX
x265 [info]: Main profile, Level-4 (Main tier)
x265 [info]: Thread pool created using 4 threads
x265 [info]: Slices                              : 1
x265 [info]: frame threads / pool features       : 2 / wpp(17 rows)
x265 [info]: Coding QT: max CU size, min CU size : 64 / 8
x265 [info]: Residual QT: max TU size, max depth : 32 / 1 inter / 1 intra
x265 [info]: ME / range / subpel / merge         : hex / 57 / 2 / 3
x265 [info]: Keyframe min / max / scenecut / bias: 25 / 250 / 40 / 5.00
x265 [info]: Lookahead / bframes / badapt        : 20 / 4 / 2
x265 [info]: b-pyramid / weightp / weightb       : 1 / 1 / 0
x265 [info]: References / ref-limit  cu / depth  : 3 / off / on
x265 [info]: AQ: mode / str / qg-size / cu-tree  : 2 / 1.0 / 32 / 1
x265 [info]: Rate Control / qCompress            : CRF-24.0 / 0.60
x265 [info]: tools: rd=3 psy-rd=2.00 early-skip rskip signhide tmvp b-intra
x265 [info]: tools: strong-intra-smoothing lslices=6 deblock sao
Output #0, matroska, to '1_fhdh264toh265filters_HOTOVO.mkv':
  Metadata:
    encoder         : Lavf58.31.102
    Stream #0:0(eng): Video: hevc (libx265), yuv420p, 1920x1080 [SAR 1:1 DAR 16:9], q=2-31, 29.97 fps, 1k tbn, 29.97 tbc (default)
    Metadata:
      encoder         : Lavc58.55.101 libx265
    Side data:
      cpb: bitrate max/min/avg: 0/0/0 buffer size: 0 vbv_delay: 18446744073709551615
frame=  900 fps=6.2 q=-0.0 Lsize=   49205kB time=00:00:29.93 bitrate=13467.3kbits/s speed=0.207x
video:49195kB audio:0kB subtitle:0kB other streams:0kB global headers:2kB muxing overhead: 0.020228%
x265 [info]: frame I:      4, Avg QP:26.27  kb/s: 48232.75
x265 [info]: frame P:    187, Avg QP:27.26  kb/s: 28059.70
x265 [info]: frame B:    709, Avg QP:30.14  kb/s: 9361.33
x265 [info]: Weighted P-Frames: Y:12.8% UV:12.3%
x265 [info]: consecutive B-frames: 1.0% 0.0% 0.5% 23.6% 74.9%

encoded 900 frames in 144.90s (6.21 fps), 13419.20 kb/s, Avg QP:29.52
PS C:\Users\Core i5\Downloads\CPUBench_FFMPEGkonverzie> .\ffmpeg.exe -i "2_4kh264toh265.mkv" -c:v libx265 -crf:v 26 "2_4kh264toh265_HOTOVO.mkv"
ffmpeg version N-94646-g1cfba7fc75 Copyright (c) 2000-2019 the FFmpeg developers
  built with gcc 9.1.1 (GCC) 20190807
  configuration: --enable-gpl --enable-version3 --enable-sdl2 --enable-fontconfig --enable-gnutls --enable-iconv --enable-libass --enable-libdav1d --enable-libbluray --enable-libfreetype --enable-libmp3lame --enable-libopencore-amrnb --enable-libopencore-amrwb --enable-libopenjpeg --enable-libopus --enable-libshine --enable-libsnappy --enable-libsoxr --enable-libtheora --enable-libtwolame --enable-libvpx --enable-libwavpack --enable-libwebp --enable-libx264 --enable-libx265 --enable-libxml2 --enable-libzimg --enable-lzma --enable-zlib --enable-gmp --enable-libvidstab --enable-libvorbis --enable-libvo-amrwbenc --enable-libmysofa --enable-libspeex --enable-libxvid --enable-libaom --enable-libmfx --enable-amf --enable-ffnvcodec --enable-cuvid --enable-d3d11va --enable-nvenc --enable-nvdec --enable-dxva2 --enable-avisynth --enable-libopenmpt
  libavutil      56. 33.100 / 56. 33.100
  libavcodec     58. 55.101 / 58. 55.101
  libavformat    58. 31.102 / 58. 31.102
  libavdevice    58.  9.100 / 58.  9.100
  libavfilter     7. 58.101 /  7. 58.101
  libswscale      5.  6.100 /  5.  6.100
  libswresample   3.  6.100 /  3.  6.100
  libpostproc    55.  6.100 / 55.  6.100
Input #0, matroska,webm, from '2_4kh264toh265.mkv':
  Metadata:
    encoder         : libebml v1.2.0 + libmatroska v1.1.0
    creation_time   : 2016-02-06T04:01:06.000000Z
  Duration: 00:00:30.03, start: 0.000000, bitrate: 120490 kb/s
    Stream #0:0(eng): Video: h264 (High), yuv420p(tv, bt709, progressive), 3840x2160 [SAR 1:1 DAR 16:9], 29.97 fps, 29.97 tbr, 1k tbn, 59.94 tbc (default)
Stream mapping:
  Stream #0:0 -> #0:0 (h264 (native) -> hevc (libx265))
Press [q] to stop, [?] for help
x265 [info]: HEVC encoder version 3.1+11-de920e0a3183
x265 [info]: build info [Windows][GCC 9.1.1][64 bit] 8bit+10bit
x265 [info]: using cpu capabilities: MMX2 SSE2Fast SSSE3 SSE4.2 AVX
x265 [info]: Main profile, Level-5 (Main tier)
x265 [info]: Thread pool created using 4 threads
x265 [info]: Slices                              : 1
x265 [info]: frame threads / pool features       : 2 / wpp(34 rows)
x265 [info]: Coding QT: max CU size, min CU size : 64 / 8
x265 [info]: Residual QT: max TU size, max depth : 32 / 1 inter / 1 intra
x265 [info]: ME / range / subpel / merge         : hex / 57 / 2 / 3
x265 [info]: Keyframe min / max / scenecut / bias: 25 / 250 / 40 / 5.00
x265 [info]: Lookahead / bframes / badapt        : 20 / 4 / 2
x265 [info]: b-pyramid / weightp / weightb       : 1 / 1 / 0
x265 [info]: References / ref-limit  cu / depth  : 3 / off / on
x265 [info]: AQ: mode / str / qg-size / cu-tree  : 2 / 1.0 / 32 / 1
x265 [info]: Rate Control / qCompress            : CRF-26.0 / 0.60
x265 [info]: tools: rd=3 psy-rd=2.00 early-skip rskip signhide tmvp b-intra
x265 [info]: tools: strong-intra-smoothing lslices=8 deblock sao
Output #0, matroska, to '2_4kh264toh265_HOTOVO.mkv':
  Metadata:
    encoder         : Lavf58.31.102
    Stream #0:0(eng): Video: hevc (libx265), yuv420p, 3840x2160 [SAR 1:1 DAR 16:9], q=2-31, 29.97 fps, 1k tbn, 29.97 tbc (default)
    Metadata:
      encoder         : Lavc58.55.101 libx265
    Side data:
      cpb: bitrate max/min/avg: 0/0/0 buffer size: 0 vbv_delay: 18446744073709551615
frame=  900 fps=2.3 q=-0.0 Lsize=   49689kB time=00:00:29.93 bitrate=13599.8kbits/s speed=0.078x
video:49679kB audio:0kB subtitle:0kB other streams:0kB global headers:2kB muxing overhead: 0.019958%
x265 [info]: frame I:      4, Avg QP:26.88  kb/s: 32866.93
x265 [info]: frame P:    224, Avg QP:27.75  kb/s: 24351.87
x265 [info]: frame B:    672, Avg QP:31.09  kb/s: 9836.09
x265 [info]: Weighted P-Frames: Y:0.0% UV:0.0%
x265 [info]: consecutive B-frames: 0.9% 0.4% 6.6% 87.3% 4.8%

encoded 900 frames in 383.75s (2.35 fps), 13551.27 kb/s, Avg QP:30.24
PS C:\Users\Core i5\Downloads\CPUBench_FFMPEGkonverzie> .\ffmpeg.exe -i "3_4khdrtosdr.mkv" -vf zscale=t=linear:npl=100,format=gbrpf32le,zscale=p=bt709,tonemap=tonemap=hable:desat=0,zscale=t=bt709:m=bt709:r=tv,format=yuv420p -c:v libx265 -crf:v 24 -c:a aac -b:a 128k "3_4khdrtosdr_HOTOVO.mkv"
ffmpeg version N-94646-g1cfba7fc75 Copyright (c) 2000-2019 the FFmpeg developers
  built with gcc 9.1.1 (GCC) 20190807
  configuration: --enable-gpl --enable-version3 --enable-sdl2 --enable-fontconfig --enable-gnutls --enable-iconv --enable-libass --enable-libdav1d --enable-libbluray --enable-libfreetype --enable-libmp3lame --enable-libopencore-amrnb --enable-libopencore-amrwb --enable-libopenjpeg --enable-libopus --enable-libshine --enable-libsnappy --enable-libsoxr --enable-libtheora --enable-libtwolame --enable-libvpx --enable-libwavpack --enable-libwebp --enable-libx264 --enable-libx265 --enable-libxml2 --enable-libzimg --enable-lzma --enable-zlib --enable-gmp --enable-libvidstab --enable-libvorbis --enable-libvo-amrwbenc --enable-libmysofa --enable-libspeex --enable-libxvid --enable-libaom --enable-libmfx --enable-amf --enable-ffnvcodec --enable-cuvid --enable-d3d11va --enable-nvenc --enable-nvdec --enable-dxva2 --enable-avisynth --enable-libopenmpt
  libavutil      56. 33.100 / 56. 33.100
  libavcodec     58. 55.101 / 58. 55.101
  libavformat    58. 31.102 / 58. 31.102
  libavdevice    58.  9.100 / 58.  9.100
  libavfilter     7. 58.101 /  7. 58.101
  libswscale      5.  6.100 /  5.  6.100
  libswresample   3.  6.100 /  3.  6.100
  libpostproc    55.  6.100 / 55.  6.100
Input #0, matroska,webm, from '3_4khdrtosdr.mkv':
  Metadata:
    ENCODER         : Lavf58.31.102
  Duration: 00:01:34.65, start: 0.000000, bitrate: 65314 kb/s
    Stream #0:0: Video: hevc (Main 10), yuv420p10le(tv, bt2020nc/bt2020/smpte2084), 3840x2160 [SAR 1:1 DAR 16:9], 59.94 fps, 59.94 tbr, 1k tbn, 59.94 tbc (default)
    Metadata:
      DURATION        : 00:01:34.649000000
    Stream #0:1: Audio: aac (LC), 48000 Hz, stereo, fltp (default)
    Metadata:
      ENCODER         : Lavc58.55.101 aac
      DURATION        : 00:01:34.634000000
Stream mapping:
  Stream #0:0 -> #0:0 (hevc (native) -> hevc (libx265))
  Stream #0:1 -> #0:1 (aac (native) -> aac (native))
Press [q] to stop, [?] for help
x265 [info]: HEVC encoder version 3.1+11-de920e0a3183
x265 [info]: build info [Windows][GCC 9.1.1][64 bit] 8bit+10bit
x265 [info]: using cpu capabilities: MMX2 SSE2Fast SSSE3 SSE4.2 AVX
x265 [info]: Main profile, Level-5.1 (Main tier)
x265 [info]: Thread pool created using 4 threads
x265 [info]: Slices                              : 1
x265 [info]: frame threads / pool features       : 2 / wpp(34 rows)
x265 [info]: Coding QT: max CU size, min CU size : 64 / 8
x265 [info]: Residual QT: max TU size, max depth : 32 / 1 inter / 1 intra
x265 [info]: ME / range / subpel / merge         : hex / 57 / 2 / 3
x265 [info]: Keyframe min / max / scenecut / bias: 25 / 250 / 40 / 5.00
x265 [info]: Lookahead / bframes / badapt        : 20 / 4 / 2
x265 [info]: b-pyramid / weightp / weightb       : 1 / 1 / 0
x265 [info]: References / ref-limit  cu / depth  : 3 / off / on
x265 [info]: AQ: mode / str / qg-size / cu-tree  : 2 / 1.0 / 32 / 1
x265 [info]: Rate Control / qCompress            : CRF-24.0 / 0.60
x265 [info]: tools: rd=3 psy-rd=2.00 early-skip rskip signhide tmvp b-intra
x265 [info]: tools: strong-intra-smoothing lslices=8 deblock sao
Output #0, matroska, to '3_4khdrtosdr_HOTOVO.mkv':
  Metadata:
    encoder         : Lavf58.31.102
    Stream #0:0: Video: hevc (libx265), yuv420p, 3840x2160 [SAR 1:1 DAR 16:9], q=2-31, 59.94 fps, 1k tbn, 59.94 tbc (default)
    Metadata:
      DURATION        : 00:01:34.649000000
      encoder         : Lavc58.55.101 libx265
    Side data:
      cpb: bitrate max/min/avg: 0/0/0 buffer size: 0 vbv_delay: 18446744073709551615
    Stream #0:1: Audio: aac (LC) ([255][0][0][0] / 0x00FF), 48000 Hz, stereo, fltp, 128 kb/s (default)
    Metadata:
      DURATION        : 00:01:34.634000000
      encoder         : Lavc58.55.101 aac
frame= 5672 fps=3.4 q=-0.0 Lsize=  248224kB time=00:01:34.63 bitrate=21487.5kbits/s speed=0.0574x
video:246662kB audio:1486kB subtitle:0kB other streams:0kB global headers:2kB muxing overhead: 0.030368%
x265 [info]: frame I:     25, Avg QP:25.00  kb/s: 282183.37
x265 [info]: frame P:   1441, Avg QP:26.31  kb/s: 69632.99
x265 [info]: frame B:   4206, Avg QP:33.71  kb/s: 3260.03
x265 [info]: Weighted P-Frames: Y:23.2% UV:17.9%
x265 [info]: consecutive B-frames: 3.4% 4.0% 12.8% 61.9% 17.9%

encoded 5672 frames in 1648.60s (3.44 fps), 21351.80 kb/s, Avg QP:31.79
[aac @ 00000201bd808fc0] Qavg: 253.542
Administrátor fóra Živě.cz.
milsimr
Administrátor
Uživatelský avatar

Odeslat příspěvekod dropadred 9. 9. 2019 21:58

Ďakujem, pridané.
Audio-GD R2R-11 > Mr.Speakers Alpha Dog, Audeze LCD-2 Classic; Dragonfly Red > Oriveti Basic
dropadred
Kolemjdoucí
Uživatelský avatar


Kdo je online

Uživatelé procházející toto fórum: Žádní registrovaní uživatelé a 0 návštevníků