Vypálení BIN souboru

Software, zkušenosti

Moderátor: Moderátoři Živě.cz

Odeslat příspěvekod Zive.cz 8. 4. 2005 10:44

Jak mohu vypálit BIN soubor? Jaký program je potřeba?
Zive.cz
Junior

Odeslat příspěvekod zxma 12. 4. 2005 01:24

V podstate jakymkoliv vypalovacim programem ktery podporuje vypaleni CUE/BIN. Ale kdyz nevis v jakem formatu byl ten *.bin vytvoren (nemas k nemu prislusny *.cue soubor, tak to musis vyzkouset na CDRW.
Priklad cue souboru, ktery rekne vypalovacce jak ma ten bin vypalit:

FILE zkouska1.bin BINARY
TRACK 01 MODE1/2048
INDEX 01 00:00:00
------------------------------
FILE zkouska2.bin BINARY
TRACK 02 MODE1/2352
INDEX 01 00:00:00
-----------------------------
FILE zkouska3.bin BINARY
TRACK 03 MODE2/2352
INDEX 01 00:00:00
zxma
Kolemjdoucí
Uživatelský avatar

Odeslat příspěvekod Prochy 12. 4. 2005 01:25

Vypalovani .bin umi Alocohol, myslim, ze i Nero ho dokaze vypalit a na dalsi si nemuzu vzpomenout :)
Prochy
Junior
Uživatelský avatar

Odeslat příspěvekod funkyhugoboss 12. 4. 2005 11:05

v neru start smart > kopirováni a zálohovani > vypalit obraz na disk a už páliš
funkyhugoboss
Kolemjdoucí
Uživatelský avatar

Odeslat příspěvekod Howard 12. 4. 2005 11:10

Pokud chces nejaky free soft na paleni, tak urcite zkus Burn4Free.
Have you tried to turn it off and on again?
Windows je ... nikoliv Windows jsou (Windows is ...)
Howard
VIP uživatel
Uživatelský avatar

Odeslat příspěvekod Jackal 12. 4. 2005 15:06

Ja pouzivam Alcohol 120% a jistim to Nerem 6.6.0.8.Alcohol 120% vytvori virtualku a jeste muzes biny pouzivat.
NB: ACER Aspire 7741G, Intel® Core™ i5-430M 2.27GHz/2.53GHz, Radeon HD 5650, 4GB DDR3 RAM, 500GB HDD, Windows 7 64bit Home Premium, Avast! Internet Security 5
Telefon: HTC HD7, Dell Streak Mini, CoPilot Live 8.2.0.406 - Evropa 2010/03 (17.12.2010), Navigon 2.6.1 - Europe
Jackal
Mírně pokročilý
Uživatelský avatar

Odeslat příspěvekod Gabelhirsch 12. 4. 2005 15:15

Howard píše:Pokud chces nejaky free soft na paleni, tak urcite zkus Burn4Free.



free burner je taky jako plugin do total commandera... docela dobrej...
Je opravdu nesmysl považovat myšlení za lidský výmysl…
Gabelhirsch
Mírně pokročilý

Odeslat příspěvekod Robert7 19. 4. 2005 09:51

Stáhl jsem webu bin soubor,ale bohuzel je bez zavadeciho souboru.Zkousel jsem ho vytvorit pomoci vzoru vyse uvedeneho
z textoveho souboru,ale ani jedno RW po vypaleni neni citelne.
Nefunguje mi ani ve virtualni mechanice napr. Daemon Tool.
Nevite nekdo co s tim?
Robert7
Kolemjdoucí

Odeslat příspěvekod X__ 19. 4. 2005 17:42

Robert7 píše:Stáhl jsem webu bin soubor,ale bohuzel je bez zavadeciho souboru.Zkousel jsem ho vytvorit pomoci vzoru vyse uvedeneho
z textoveho souboru,ale ani jedno RW po vypaleni neni citelne.
Nefunguje mi ani ve virtualni mechanice napr. Daemon Tool.
Nevite nekdo co s tim??/quote]


Zkus ho převést pomocí programu: BIN To ISO a vypálit (radši na zkoušku na CD-RW), také ale může být poškozený.
年度新入社員入社式、社長あいさつの概要を掲載しました。
X__
Dočasný BAN
Uživatelský avatar


Kdo je online

Uživatelé procházející toto fórum: Žádní registrovaní uživatelé a 0 návštevníků