Digitalizace videa vadná

Záznam a úpravy zvuku a videa na počítači

Moderátor: Moderátoři Živě.cz

Odeslat příspěvekod aurum 5. 5. 2022 19:25

Dobrý den, dostalo se mi k ruce video od kamaráda, nechal si ho natočit jako rodinné (nějakou kamerou) a je to v jednom souboru avi (1,5 GB). Po spuštění jede pouze zvuk, místo videa je jen nějaká animace, barevné efekty, které s původním videem nemá nic společného. Údajně dříve video šlo přehrát v jednom přehrávači a to v MPC, v ostatních pouze zvuk a podivné barevné efekty (jako bych něco takového viděl ve Winampu). Teď už mu to nepřehraje ani MPC a to už mu vadí asi příliš :-). Mám to teď doma na flešce a nehnu s tím žádným přehrávačem, editačním programem atd. Určitě špatně odvedená práce kameramana, především v post produkci, ale co už. Chci se jen zeptat, dá se s tím ještě něco udělat, dá se soubor zachránit - opravit? Jde o docela památeční záležitost.
aurum
Junior

Odeslat příspěvekod Krakatoa 5. 5. 2022 20:50

Pokud to někdy šlo přehrát a od té doby se ten soubor nepoškodil, tak s tím určitě něco dělat jde :-)
Dej výpis z mediainfo.
A i z ffmpeg, ten se dělá takto:
ffmpeg -i video.avi
Pokud ani jeden výpis udělat nepude, tak jaký MPC to přehrál?
Krakatoa
Junior

Odeslat příspěvekod aurum 5. 5. 2022 22:02

to Krakatoa: Díky, že ses mne ujal. S těmi výpisy se mi to moc nedaří. Nějaké info je tady: Video: MPEG4 Video (H264) 1920x1080 25fps 4497kbps [V: h264 main L4.0, yuv420p, 1920x1080, 4497 kb/s]
Audio: MP3 48000Hz stereo 256kbps [A: mp3, 48000 Hz, stereo, 256 kb/s]

Šlo to přehrát v Media Player Classic Home Cinema (verze asi 1.7 64bit). Teď už přehrát nejde i v mém PC s tímtéž přehrávačem.

-- 5. 5. 2022 22:21 --

Přílohy
MPC.png
Takhle to vypadá
aurum
Junior

Odeslat příspěvekod meda2016 5. 5. 2022 22:22

No to si děláš kozy.....!
meda2016
Junior

Odeslat příspěvekod aurum 5. 5. 2022 22:30

Tohle je bez koz. Místo původního reálného obrazu naběhne tato animace. Už jsem to kdysi někde zahlédl, asi když soubor byl poškozen.

-- 5. 5. 2022 22:37 --

General
Complete name : D:\BANÁT 2019 VIDEOPREZENTACE FHD.avi
Format : AVI
Format/Info : Audio Video Interleave
Format profile : OpenDML
File size : 1.59 GiB
Duration : 47 min 52 s
Overall bit rate : 4 768 kb/s
Writing application : Lavf54.63.104

Video
ID : 0
Format : AVC
Format/Info : Advanced Video Codec
Format profile : Main@L4
Format settings, CABAC : Yes
Format settings, RefFrames : 1 frame
Codec ID : H264
Duration : 47 min 52 s
Bit rate : 4 496 kb/s
Width : 1 920 pixels
Height : 1 080 pixels
Display aspect ratio : 16:9
Frame rate mode : Variable
Frame rate : 25.000 FPS
Color space : YUV
Chroma subsampling : 4:2:0
Bit depth : 8 bits
Scan type : Progressive
Bits/(Pixel*Frame) : 0.087
Stream size : 1.50 GiB (94%)
Writing library : x264 core 129
Encoding settings : cabac=1 / ref=1 / deblock=1:0:0 / analyse=0x1:0x131 / me=dia / subme=2 / psy=1 / psy_rd=1.00:0.00 / mixed_ref=0 / me_range=16 / chroma_me=1 / trellis=0 / 8x8dct=0 / cqm=0 / deadzone=21,11 / fast_pskip=1 / chroma_qp_offset=0 / threads=6 / lookahead_threads=1 / sliced_threads=0 / nr=0 / decimate=1 / interlaced=0 / bluray_compat=0 / constrained_intra=0 / bframes=0 / weightp=2 / keyint=250 / keyint_min=25 / scenecut=40 / intra_refresh=0 / rc_lookahead=40 / rc=abr / mbtree=1 / bitrate=4496 / ratetol=1.0 / qcomp=0.60 / qpmin=10 / qpmax=51 / qpstep=4 / ip_ratio=1.41 / aq=1:1.00

Audio
ID : 1
Format : MPEG Audio
Format version : Version 1
Format profile : Layer 3
Mode : Joint stereo
Mode extension : MS Stereo
Codec ID : 55
Codec ID/Hint : MP3
Duration : 47 min 52 s
Bit rate mode : Constant
Bit rate : 256 kb/s
Channel(s) : 2 channels
Sampling rate : 48.0 kHz
Compression mode : Lossy
Stream size : 87.7 MiB (5%)
Alignment : Aligned on interleaves
Interleave, duration : 24 ms (0.60 video frame)
aurum
Junior

Odeslat příspěvekod aurum 8. 5. 2022 02:13

to Krakatoa: Poradíš, nebo nevíš?
aurum
Junior

Odeslat příspěvekod Krakatoa 8. 5. 2022 10:32

aurum:
Já bych poradil, ale ono je lepší to video mít před sebou a zkoušet. Vysvětlovat je to pak na hodně dlouho.
V prvé řadě to video vypadá podle výpisu funkčně, hlavičku to má, stream videa snad není poškozený a je v úplně běžném formátu avc, nějak nechápu jestli blbne proč blbne. Já původně myslel, že by to video mohlo být v nějakém nestandardním formátu.
V prvé řadě bych zkusil to video přemuxovat třeba do mkv:
ffmpeg -i vstup.avi -vcodec copy -acodec copy vystup.mkv
A jestli to nepomůže tak dělat pak s tím videem složitější věci, ale to se mi vysvětlovat fakt nechce :-(
Krakatoa
Junior

Odeslat příspěvekod aurum 8. 5. 2022 12:01

OK, dík za snahu.
aurum
Junior


Kdo je online

Uživatelé procházející toto fórum: Žádní registrovaní uživatelé a 0 návštevníků